<?xml version="1.0" standalone="no"?>
<!DOCTYPE svg PUBLIC "-//W3C//DTD SVG 1.1//EN" "http://www.w3.org/Graphics/SVG/1.1/DTD/svg11.dtd" >
<svg xmlns="http://www.w3.org/2000/svg" xmlns:xlink="http://www.w3.org/1999/xlink" version="1.1">
<metadata></metadata>
<defs>
<font id="hindbold" horiz-adv-x="1187" >
<font-face units-per-em="2048" ascent="1638" descent="-410" />
<missing-glyph horiz-adv-x="512" />
<glyph horiz-adv-x="0" />
<glyph horiz-adv-x="682" />
<glyph horiz-adv-x="0" />
<glyph horiz-adv-x="0" />
<glyph unicode="&#xd;" horiz-adv-x="681" />
<glyph unicode=" "  horiz-adv-x="512" />
<glyph unicode="&#x09;" horiz-adv-x="512" />
<glyph unicode="&#xa0;" horiz-adv-x="512" />
<glyph unicode="!" horiz-adv-x="591" d="M106 170q0 78 54.5 132t132.5 54t132 -54t54 -132t-54 -132t-132 -54t-132.5 54t-54.5 132zM154 483v897h284v-897h-284z" />
<glyph unicode="&#x22;" horiz-adv-x="792" d="M82 860v535h250v-535h-250zM461 860v535h250v-535h-250z" />
<glyph unicode="#" horiz-adv-x="1550" d="M92 315v228h254l57 276h-241v238h293l67 321h254l-67 -321h278l68 321h254l-68 -321h217v-238h-268l-60 -276h259v-228h-306l-67 -315h-252l65 315h-278l-68 -315h-252l66 315h-205zM598 543h281l57 276h-279z" />
<glyph unicode="$" horiz-adv-x="1052" d="M70 995.5q0 153.5 104.5 259t290.5 127.5v236h250v-240q109 -16 205 -59v-295q-167 96 -345 96q-80 0 -121.5 -32.5t-41.5 -84t51 -91.5t134 -76.5t125 -58t96 -59.5t87 -79q76 -102 76 -247.5t-99.5 -254t-269.5 -141.5v-238h-247v232q-170 16 -283 80v317 q186 -135 397 -135q72 0 119 38t47 99q0 45 -22.5 67.5t-38 34t-45 26.5t-50.5 26q-63 33 -124 57q-133 61 -214 151.5t-81 244z" />
<glyph unicode="%" horiz-adv-x="1992" d="M92 1089.5q0 161.5 113.5 275.5t275.5 114t275.5 -114t113.5 -275.5t-113.5 -275.5t-275.5 -114t-275.5 114t-113.5 275.5zM332 1089.5q0 -61.5 44 -105.5t105.5 -44t105.5 44t44 105.5t-44 105.5t-105.5 44t-105.5 -44t-44 -105.5zM465 -2l776 1450h270l-778 -1450h-268 zM1122 373q0 162 114 275.5t275.5 113.5t275.5 -113.5t114 -275.5t-114 -275.5t-275.5 -113.5t-275.5 113.5t-114 275.5zM1362 372.5q0 -61.5 44 -105.5t105.5 -44t105.5 44t44 105.5t-44 105.5t-105.5 44t-105.5 -44t-44 -105.5z" />
<glyph unicode="&#x26;" horiz-adv-x="1519" d="M102 377q0 254 291 348q-139 154 -139 303q0 182 125 281.5t327.5 99.5t324.5 -101.5t122 -283.5q0 -121 -68.5 -214t-222.5 -171l201 -197q37 80 37 174h268q0 -205 -115 -364l256 -252h-366l-80 80q-166 -96 -377 -96q-270 0 -427 114.5t-157 278.5zM408 380.5 q0 -63.5 79.5 -107.5t188 -44t194.5 37q-268 262 -280 273.5t-21 19.5q-94 -33 -127.5 -74t-33.5 -104.5zM557 1032q0 -90 141 -231q154 84 154 207q0 75 -42 116t-108.5 41t-105.5 -34.5t-39 -98.5z" />
<glyph unicode="'" horiz-adv-x="413" d="M82 860v535h250v-535h-250z" />
<glyph unicode="(" horiz-adv-x="692" d="M82 539q0 524 321 909h310q-150 -182 -233 -442.5t-83 -480.5t86 -473t250 -453h-317q-334 416 -334 940z" />
<glyph unicode=")" horiz-adv-x="692" d="M-41 -401q164 201 250 453.5t86 472.5t-83 480.5t-232 442.5h309q322 -385 321.5 -909.5t-334.5 -939.5h-317z" />
<glyph unicode="*" horiz-adv-x="1040" d="M57 956l76 230l191 -62q53 -18 92 -47q-14 49 -15 103v200h242v-200q0 -53 -14 -103q37 27 90 45l192 62l74 -230l-188 -61q-52 -16 -103 -16h-4q43 -33 74 -74l119 -164l-197 -141l-117 161q-33 45 -45 89q-16 -39 -49 -86l-121 -164l-194 143l119 162q31 41 71 71 q-47 0 -100 19z" />
<glyph unicode="+" horiz-adv-x="1206" d="M92 561v266h373v371h274v-371h375v-266h-375v-368h-274v368h-373z" />
<glyph unicode="," horiz-adv-x="602" d="M-14 -260l207 534h329l-278 -534h-258z" />
<glyph unicode="-" horiz-adv-x="731" d="M92 414v245h547v-245h-547z" />
<glyph unicode="." horiz-adv-x="528" d="M82 166q0 76 53 129t129 53t129 -53t53 -129t-53 -129t-129 -53t-129 53t-53 129z" />
<glyph unicode="/" horiz-adv-x="950" d="M-4 -211l735 1659h311l-737 -1659h-309z" />
<glyph unicode="0" horiz-adv-x="1120" d="M72 676.5q0 318.5 122.5 505t364.5 186.5t366 -186.5t124 -504t-124 -505.5t-366 -188t-364.5 187t-122.5 505.5zM377 676q0 -426 183 -426t183 426t-183 426t-183 -426z" />
<glyph unicode="1" horiz-adv-x="778" d="M20 815v305l377 219h258v-1339h-297v1018z" />
<glyph unicode="2" horiz-adv-x="1026" d="M61 0v231q221 152 390.5 336.5t169.5 325.5q0 86 -51.5 136t-155.5 50q-174 0 -330 -129v289q68 49 176.5 84t212.5 35q209 0 333 -109.5t124 -306.5q0 -354 -451 -688h475v-254h-893z" />
<glyph unicode="3" horiz-adv-x="989" d="M61 59v287q164 -90 338 -90q100 0 156.5 43t56.5 109q0 150 -276 149h-72v246h72q109 0 178.5 37t69.5 110q0 141 -185 142q-141 0 -284 -88v278q151 76 305 76q217 0 344 -103.5t127 -269.5q0 -227 -207 -313q233 -55 234 -303q0 -172 -130.5 -275.5t-356.5 -103.5 t-370 69z" />
<glyph unicode="4" horiz-adv-x="1150" d="M61 285v254l410 804h475v-804h164v-254h-164v-285h-297v285h-588zM354 539h295v606z" />
<glyph unicode="5" horiz-adv-x="1024" d="M72 59v283q139 -86 311 -86q274 0 274 197q0 74 -56 116.5t-191.5 42.5t-280.5 -67v798h752v-253h-461v-228q45 6 90 6q219 0 336 -112.5t117 -314t-138.5 -327.5t-377 -126t-375.5 71z" />
<glyph unicode="6" horiz-adv-x="1099" d="M72 612q0 342 187 547t474 205q109 0 211 -33v-276q-80 43 -186 43q-145 0 -238.5 -89t-126.5 -239q111 94 276 94t272.5 -116.5t107.5 -316.5t-128 -336t-362.5 -136t-360.5 177t-126 476zM381 524q22 -299 192 -299q80 0 125 55.5t45 143.5t-44 138t-124 50 q-111 0 -194 -88z" />
<glyph unicode="7" horiz-adv-x="983" d="M41 1087v254h901v-254l-520 -1087h-316l523 1087h-588z" />
<glyph unicode="8" horiz-adv-x="1116" d="M72 362q0 217 194 314q-174 100 -174 288.5t130 294t335 105.5t335 -100.5t130 -292t-168 -289.5q190 -88 190 -309q0 -176 -136 -284.5t-356 -108.5t-350 103t-130 279zM371 373.5q0 -66.5 44 -111.5t139 -45t143 46t48 116t-50 117t-141 47t-137 -51.5t-46 -118z M393 962.5q0 -71.5 47 -114.5t118 -43t118 43t47 121q0 157 -170 157q-82 0 -121 -46t-39 -117.5z" />
<glyph unicode="9" horiz-adv-x="1091" d="M41 895q0 197 126 330t353.5 133t363.5 -173t136 -472q0 -367 -174 -548t-465 -181q-139 0 -244 39v282q107 -51 211 -51q160 0 248 72.5t115 228.5q-88 -88 -267.5 -88t-291 115.5t-111.5 312.5zM346 902q0 -87 47 -140t127 -53q123 0 199 92q-25 291 -197 291 q-80 0 -128 -51.5t-48 -138.5z" />
<glyph unicode=":" horiz-adv-x="585" d="M113 180q0 76 52 128t128 52t128 -52t52 -128t-52 -128t-128 -52t-128 52t-52 128zM113 858q0 76 52 128t128 52t128 -52t52 -128t-52 -128t-128 -52t-128 52t-52 128z" />
<glyph unicode=";" horiz-adv-x="602" d="M-14 -260l207 534h329l-278 -534h-258zM150 858q0 76 52 128t128 52t128 -52t52 -128t-52 -128t-128 -52t-128 52t-52 128z" />
<glyph unicode="&#x3c;" horiz-adv-x="1206" d="M92 555v283l1022 364v-295l-725 -211l725 -211v-295z" />
<glyph unicode="=" horiz-adv-x="1206" d="M92 340v246h1022v-246h-1022zM92 807v246h1022v-246h-1022z" />
<glyph unicode="&#x3e;" horiz-adv-x="1206" d="M92 190v295l725 211l-725 211v295l1022 -364v-283z" />
<glyph unicode="?" horiz-adv-x="937" d="M133 1059v280q123 57 314.5 57.5t310.5 -101t119 -273.5q0 -92 -37 -167t-92 -118q-115 -86 -205 -86l-6 -168h-273l-6 310q315 0 315 192q0 74 -44 118t-130 44q-133 0 -266 -88zM211 170q0 78 54 132t132 54t132.5 -54t54.5 -132t-54.5 -132t-132.5 -54t-132 54 t-54 132z" />
<glyph unicode="@" horiz-adv-x="2000" d="M82 426q0 248 133 471t358.5 350t472 127t442 -94t318.5 -281.5t123 -430t-121.5 -405.5t-294.5 -163q-242 0 -313 223q-41 -109 -124 -165t-187 -56q-166 0 -262.5 126t-96.5 323.5t125 327.5t293 130t248 -149q8 100 10 145h238l-27 -452q0 -221 105 -222 q72 0 116.5 85t44.5 231q0 291 -177 438.5t-453 147.5q-211 0 -376 -105.5t-249 -271.5t-84 -355q0 -276 176 -439t436 -163q215 0 412 95l-8 -252q-189 -84 -402 -84q-274 0 -476.5 119.5t-301 310t-98.5 438.5zM793 441.5q0 -111.5 54 -169t124.5 -57.5t129.5 52.5 t79 150.5l2 82q-12 96 -63.5 146t-128.5 50t-137 -71.5t-60 -183z" />
<glyph unicode="A" horiz-adv-x="1413" d="M47 0l461 1380h397l461 -1380h-338l-84 283h-483l-84 -283h-330zM537 537h331q-137 469 -166 614q-11 -90 -165 -614z" />
<glyph unicode="B" horiz-adv-x="1239" d="M133 0v1380h537q227 0 346 -107.5t119 -273.5q0 -109 -57.5 -190.5t-149.5 -110.5q239 -72 240 -321q0 -166 -118 -271.5t-321 -105.5h-596zM449 252h165q234 0 234 160q0 159 -232 159h-167v-319zM449 819h116q123 0 185.5 45t62.5 119q0 145 -197 145h-167v-309z" />
<glyph unicode="C" horiz-adv-x="1255" d="M82 688q0 313 197.5 512t515.5 199q233 0 358 -78v-303q-154 94 -331 94t-289.5 -115.5t-112.5 -308t112.5 -304.5t298 -112t322.5 99v-310q-123 -77 -354 -77h-6q-303 0 -507 195.5t-204 508.5z" />
<glyph unicode="D" horiz-adv-x="1398" d="M133 0v1380h475q311 0 510 -191.5t199 -475.5q0 -332 -195.5 -522.5t-517.5 -190.5h-471zM457 258h143q190 0 293.5 119t103.5 319.5t-104.5 312t-294.5 111.5h-141v-862z" />
<glyph unicode="E" horiz-adv-x="1114" d="M133 0v1380h850v-252h-532v-313h475v-250h-475v-313h540v-252h-858z" />
<glyph unicode="F" horiz-adv-x="1036" d="M133 0v1380h842v-252h-524v-356h456v-252h-456v-520h-318z" />
<glyph unicode="G" horiz-adv-x="1445" d="M82 690.5q0 325.5 216 520t548 194.5q233 0 403 -86v-315q-196 113 -396 113q-1 0 -1 -1q-201 0 -315.5 -115.5t-114.5 -309t112.5 -308.5t307.5 -115q88 0 174 27v260h-223v268h530v-696q-197 -143 -512 -143t-522 190.5t-207 516z" />
<glyph unicode="H" horiz-adv-x="1404" d="M133 0v1380h316v-561h505v561h318v-1380h-318v551h-505v-551h-316z" />
<glyph unicode="I" horiz-adv-x="622" d="M154 0v1380h315v-1380h-315z" />
<glyph unicode="J" horiz-adv-x="802" d="M61 39v278q76 -47 158 -47q145 0 146 156v952h315v-960q0 -199 -105.5 -309.5t-293.5 -110.5q-141 0 -220 41z" />
<glyph unicode="K" horiz-adv-x="1355" d="M133 0v1380h316v-1380h-316zM463 686l446 694h375l-453 -690l490 -690h-395z" />
<glyph unicode="L" horiz-adv-x="999" d="M133 0v1380h316v-1104h509v-276h-825z" />
<glyph unicode="M" horiz-adv-x="1828" d="M102 0l119 1380h346q248 -645 280 -739t52 -178q33 135 143 418l195 499h346l143 -1380h-315l-51 535l-27 403q-43 -125 -342 -924h-186q-283 762 -326 924q0 -145 -18 -403l-43 -535h-316z" />
<glyph unicode="N" horiz-adv-x="1427" d="M133 0v1380h346l322 -571q139 -248 198 -420q-20 152 -20 420v571h315v-1380h-346l-330 571q-129 219 -184 377l-16 51q31 -184 31 -428v-571h-316z" />
<glyph unicode="O" horiz-adv-x="1507" d="M82 693.5q0 318.5 183.5 514t489.5 195.5t488 -194.5t182 -513t-183 -514t-489.5 -195.5t-488.5 194.5t-182 513zM420 694.5q0 -194.5 90 -308.5t243.5 -114t243.5 114t90 308.5t-90 308t-243.5 113.5t-243.5 -113.5t-90 -308z" />
<glyph unicode="P" horiz-adv-x="1153" d="M133 0v1380h475q229 0 371.5 -129t142.5 -342t-148.5 -338t-365.5 -125h-159v-446h-316zM449 696h155q96 12 147.5 75t51.5 145.5t-53.5 144t-145.5 67.5h-155v-432z" />
<glyph unicode="Q" horiz-adv-x="1517" d="M82 694.5q0 317.5 183.5 513t489.5 195.5t488 -194.5t182 -514.5q0 -217 -88 -380.5t-247 -250.5l421 -235l-358 -137l-408 295q-303 2 -483 196.5t-180 512zM420 694.5q0 -194.5 90 -308.5t243.5 -114t243.5 114t90 308.5t-90 308t-243.5 113.5t-243.5 -113.5t-90 -308z " />
<glyph unicode="R" horiz-adv-x="1257" d="M133 0v1380h477q231 0 371.5 -122.5t140.5 -319.5q0 -295 -252 -408l351 -530h-377l-299 479h-96v-479h-316zM449 735h149q205 0 205 201q0 88 -53.5 138t-145.5 50h-155v-389z" />
<glyph unicode="S" horiz-adv-x="1052" d="M80 1005.5q0 163.5 131 273.5t350 110t369 -70v-295q-166 96 -344 96q-80 0 -122 -32.5t-42 -84t51 -91.5t134 -76.5t125 -58t96.5 -59.5t84.5 -79q78 -102 78 -238q0 -186 -137 -301.5t-372.5 -115.5t-389.5 86v317q186 -135 397 -135q72 0 119 38t47 99 q0 45 -22.5 67.5t-37.5 34t-45 26.5t-50 26q-63 31 -125 57q-133 61 -214 151.5t-81 254z" />
<glyph unicode="T" horiz-adv-x="1114" d="M61 1126v254h992v-254h-336v-1126h-318v1126h-338z" />
<glyph unicode="U" horiz-adv-x="1368" d="M123 520v860h315v-858q0 -256 246 -256t246 266v848h315v-845q0 -270 -151.5 -412.5t-407.5 -142.5t-409.5 141t-153.5 399z" />
<glyph unicode="V" horiz-adv-x="1349" d="M39 1380h340l166 -551q90 -295 131 -544q33 213 133 544l166 551h336l-465 -1380h-348z" />
<glyph unicode="W" horiz-adv-x="1988" d="M39 1380h332q168 -672 194.5 -804t40.5 -232q33 150 277 1016h233q225 -809 270 -1016q27 182 115 530l127 506h322l-369 -1380h-352q-211 762 -230 872q-6 -84 -110 -436l-127 -436h-352z" />
<glyph unicode="X" horiz-adv-x="1357" d="M55 0l437 700l-416 680h366l230 -403l219 403h385l-418 -682l445 -698h-375l-250 430l-242 -430h-381z" />
<glyph unicode="Y" horiz-adv-x="1316" d="M27 1380h368q207 -496 258 -643q20 92 181 443l90 200h366l-477 -872v-508h-315v506z" />
<glyph unicode="Z" horiz-adv-x="1271" d="M123 0v231l618 895h-606v254h989v-223l-622 -903h647v-254h-1026z" />
<glyph unicode="[" horiz-adv-x="743" d="M133 -401v1849h580v-260h-297v-1327h297v-262h-580z" />
<glyph unicode="\" horiz-adv-x="950" d="M-92 1448h311l735 -1659h-309z" />
<glyph unicode="]" horiz-adv-x="743" d="M31 -139h297v1327h-297v260h579v-1849h-579v262z" />
<glyph unicode="^" horiz-adv-x="1005" d="M68 680l309 537h252l309 -537h-276l-158 299l-160 -299h-276z" />
<glyph unicode="_" horiz-adv-x="1118" d="M41 -92h1036v-248h-1036v248z" />
<glyph unicode="`" horiz-adv-x="1024" d="M274 1634h299l177 -362h-248z" />
<glyph unicode="a" horiz-adv-x="1056" d="M72 305q0 139 109.5 222t324.5 83h131v72q0 131 -171 131t-314 -94v268q123 70 349 70t334.5 -95.5t108.5 -295.5v-666h-293v127q-66 -133 -258 -133q-152 0 -236.5 86t-84.5 225zM383 309q0 -104 121 -104q63 0 98 39t35 106v76h-96q-76 0 -117 -33t-41 -84z" />
<glyph unicode="b" horiz-adv-x="1251" d="M123 0v1448h299v-569q106 172 305 172t326 -141.5t127 -374t-122 -390t-327 -157.5t-309 174v-162h-299zM422 528q0 -131 63.5 -210.5t161.5 -79.5t164 76.5t66 206.5t-64.5 206t-159 76t-163 -72t-68.5 -203z" />
<glyph unicode="c" horiz-adv-x="960" d="M72 516q4 233 151.5 386t403.5 153q158 0 272 -60v-256q-109 68 -238 68t-206.5 -75t-79.5 -216q8 -137 81.5 -213t198.5 -76t244 72v-250q-119 -65 -286 -65h-5q-233 0 -384.5 148.5t-151.5 383.5z" />
<glyph unicode="d" horiz-adv-x="1251" d="M72 535.5q0 232.5 127 374t325.5 141.5t304.5 -172v569h299v-1448h-299v162q-104 -174 -309 -174t-326.5 157.5t-121.5 390zM375 521q0 -130 65.5 -206.5t163.5 -76.5t161.5 79.5t63.5 210.5t-68.5 203t-162.5 72t-158.5 -76t-64.5 -206z" />
<glyph unicode="e" horiz-adv-x="1091" d="M72 527.5q0 240.5 138 381t344 140.5t326.5 -122t120.5 -364q0 -47 -16 -162h-610q31 -86 106.5 -133t182.5 -47q158 0 274 88v-250q-105 -70 -341 -70q-2 1 -3 1q-238 0 -380 148.5t-142 389zM362 614h361v25q-14 182 -160 182q-72 0 -127 -52t-74 -155z" />
<glyph unicode="f" horiz-adv-x="708" d="M61 819v219h136v39q0 188 105.5 293t291.5 105q96 0 156 -21v-242q-57 23 -119 23q-137 0 -137 -158v-39h194v-219h-194v-819h-297v819h-136z" />
<glyph unicode="g" horiz-adv-x="1198" d="M82 524.5q0 235.5 120 380t309 144.5t277 -148v137h297v-938q0 -250 -149.5 -375.5t-371.5 -125.5t-386 77v306q143 -115 352 -115q135 0 196.5 57.5t61.5 179.5v70q-90 -139 -274 -139t-308 127t-124 362.5zM393 533.5q0 -125.5 49.5 -193.5t143.5 -68t148 73t54 175 q0 279 -202 279q-90 0 -141.5 -70t-51.5 -195.5z" />
<glyph unicode="h" d="M123 0v1448h299v-586q80 186 311 187q152 0 247 -96.5t95 -290.5v-662h-299v614q0 90 -45 141.5t-117 51.5q-59 0 -118 -41q-74 -53 -74 -217v-549h-299z" />
<glyph unicode="i" horiz-adv-x="565" d="M109 1339.5q0 71.5 51 122.5t122.5 51t123 -51t51.5 -122.5t-51.5 -123t-123 -51.5t-122.5 51.5t-51 123zM133 0v1038h299v-1038h-299z" />
<glyph unicode="j" horiz-adv-x="561" d="M-82 -145q68 -31 117 -31q106 0 106 137v1077h297v-1081q0 -164 -92 -263.5t-266 -99.5q-72 0 -162 33v228zM115 1339.5q0 71.5 51 122.5t122.5 51t123 -51t51.5 -122.5t-51.5 -123t-123 -51.5t-122.5 51.5t-51 123z" />
<glyph unicode="k" horiz-adv-x="1122" d="M123 0v1413h299v-840l328 465h344l-361 -497l367 -541h-346l-332 510v-510h-299z" />
<glyph unicode="l" horiz-adv-x="565" d="M133 0v1448h299v-1448h-299z" />
<glyph unicode="m" horiz-adv-x="1759" d="M123 0v1038h299v-161q86 172 299 172t285 -197q35 92 116.5 144.5t192.5 52.5q154 0 243 -97.5t89 -285.5v-666h-299v616q0 88 -35 139.5t-102.5 51.5t-122 -56.5t-54.5 -201.5v-549h-299v616q0 88 -34.5 139.5t-102.5 51.5t-122 -56.5t-54 -201.5v-549h-299z" />
<glyph unicode="n" d="M123 0v1038h299v-176q39 86 120 136.5t193 50.5q160 0 250 -95.5t90 -279.5v-674h-299v618q0 92 -43 140.5t-123 48.5t-134 -64.5t-54 -193.5v-549h-299z" />
<glyph unicode="o" horiz-adv-x="1161" d="M72 510.5q0 234.5 139 389.5t375.5 155t370 -149.5t133.5 -383t-134.5 -386t-376 -152.5t-374.5 146t-133 380.5zM383 518q0 -133 50 -218t149.5 -85t147.5 83t48 219q0 302 -198 302q-98 0 -147.5 -84t-49.5 -217z" />
<glyph unicode="p" horiz-adv-x="1251" d="M123 -383v1421h299v-159q109 172 311.5 172t324.5 -142.5t122 -380t-118 -389t-328 -151.5t-312 166v-537h-299zM422 528q0 -131 65.5 -210.5t166 -79.5t162 74.5t61.5 209.5t-62.5 208t-158 73t-165 -72t-69.5 -203z" />
<glyph unicode="q" horiz-adv-x="1251" d="M72 528.5q0 237.5 122.5 380t325.5 142.5t309 -172v159h299v-1421h-299v545q-104 -174 -312 -174t-326.5 151.5t-118.5 389zM375 521q0 -130 65.5 -206.5t163.5 -76.5t161.5 79.5t63.5 210.5t-68.5 203t-162.5 72t-158.5 -76t-64.5 -206z" />
<glyph unicode="r" horiz-adv-x="757" d="M121 0l2 1038h297v-192q29 90 95.5 144t154.5 54q49 0 78 -8v-282q-47 22 -108 22h-5q-96 0 -155.5 -70.5t-59.5 -187.5v-518h-299z" />
<glyph unicode="s" horiz-adv-x="892" d="M224.5 967q115.5 84 281.5 84t272 -43v-256q-109 63 -254 63q-53 0 -81.5 -21.5t-28.5 -47t10 -42t33.5 -31t45 -25.5t58.5 -27q139 -59 204.5 -133t65.5 -175q0 -154 -110.5 -237.5t-295.5 -83.5t-312 63v267q141 -98 299 -99q112 0 112 71v1q0 39 -45 65q-33 18 -88 42 t-76 34q-206 98 -206 293q0 154 115.5 238z" />
<glyph unicode="t" horiz-adv-x="790" d="M20 819v219h150v246h299v-246h242v-219h-242v-477q0 -55 31.5 -84t98.5 -29t130 41v-247q-76 -33 -205 -33q-354 0 -354 354v475h-150z" />
<glyph unicode="u" d="M113 344v694h299v-626q0 -182 159 -183q195 0 195 260v549h299v-1038h-299v166q-82 -174 -315 -174q-160 0 -249 89t-89 263z" />
<glyph unicode="v" horiz-adv-x="1097" d="M10 1038h314q164 -535 187.5 -631t37.5 -176q18 133 92 365l139 442h307l-387 -1038h-307z" />
<glyph unicode="w" horiz-adv-x="1650" d="M10 1038h309q158 -598 179 -755q14 123 100 413l100 342h258q170 -592 197 -755q14 121 96 413l97 342h294l-331 -1038h-308q-150 567 -174 725q-20 -137 -86 -385l-90 -340h-307z" />
<glyph unicode="x" horiz-adv-x="1077" d="M33 0l370 520l-348 518h332l168 -309l186 309h328l-373 -520l346 -518h-325l-174 311l-187 -311h-323z" />
<glyph unicode="y" horiz-adv-x="1089" d="M10 1038h326q199 -569 223 -686q27 100 213 686h307l-374 -1007q-162 -437 -494 -437q-63 0 -115 11v237q33 -8 70 -8q170 0 246 182z" />
<glyph unicode="z" horiz-adv-x="980" d="M82 0v215l455 594h-437v229h774v-207l-454 -600h479v-231h-817z" />
<glyph unicode="{" horiz-adv-x="778" d="M82 377v289h35q80 0 127 59t47 137q0 33 -12.5 111t-12.5 123q0 160 91.5 264t234.5 104q63 0 135 -24v-277q-31 18 -68.5 18.5t-68.5 -31.5t-31 -69t12.5 -117.5t12.5 -129.5q0 -125 -71 -212t-167 -100q96 -12 167 -100t71 -213q0 -49 -12.5 -130t-12.5 -118t31 -68.5 t68.5 -31.5t68.5 18v-276q-72 -25 -135 -25q-143 0 -234.5 104.5t-91.5 264.5q0 45 12.5 122.5t12.5 110.5q0 78 -47 138.5t-127 60.5z" />
<glyph unicode="|" horiz-adv-x="573" d="M143 -397v1820h287v-1820h-287z" />
<glyph unicode="}" horiz-adv-x="778" d="M51 -121q31 -18 69 -18t68.5 31.5t30.5 68.5t-12 118t-12 130q0 125 70.5 213t166.5 100q-96 12 -166.5 99.5t-70.5 212.5q0 49 12 129.5t12 117.5t-30.5 69t-68.5 32t-69 -19v277q72 25 135 24q143 0 234.5 -104.5t91.5 -263.5q0 -45 -12.5 -123t-12.5 -111 q0 -78 47.5 -137t127.5 -59h34v-289q-14 2 -34 2q-80 0 -127.5 -60.5t-47.5 -138.5q0 -33 12.5 -110.5t12.5 -122.5q0 -160 -91 -264.5t-235 -104.5q-63 0 -135 25v276z" />
<glyph unicode="~" horiz-adv-x="1339" d="M57 532q63 90 155.5 157t212.5 67t254 -50.5t192.5 -50.5t103.5 29t98 92l207 -166q-157 -223 -354 -223q-117 0 -249 50t-200.5 50t-114 -28.5t-98.5 -89.5z" />
<glyph unicode="&#xa1;" horiz-adv-x="591" d="M106 872.5q0 77.5 54.5 132t132.5 54.5t132 -54.5t54 -132t-54 -132t-132 -54.5t-132.5 54.5t-54.5 132zM154 -338v897h284v-897h-284z" />
<glyph unicode="&#xa2;" horiz-adv-x="978" d="M61 516q4 199 116 342t308 182v230h250v-226q88 -16 162 -55v-250q-109 68 -239 68t-210.5 -76t-82.5 -215q8 -135 84.5 -212t202.5 -77t245 72v-250q-72 -37 -162 -53v-223h-248v221q-188 37 -307 178t-119 344z" />
<glyph unicode="&#xa3;" horiz-adv-x="1105" d="M90 547v217h123q-6 49 -6 96q0 231 121 361.5t358 130.5q174 0 281 -66v-282q-94 68 -213 67q-215 0 -215 -223q0 -27 4 -84h340v-217h-318v-35q0 -180 -125 -260h598v-252h-946v248q150 78 150 266v33h-152z" />
<glyph unicode="&#xa4;" horiz-adv-x="1169" d="M57 291l121 117q-59 106 -59 228t57 226l-119 117l174 168l119 -117q104 57 233.5 57t235.5 -55l119 115l174 -168l-119 -117q59 -109 59.5 -227.5t-61.5 -226.5l121 -117l-174 -168l-121 115q-102 -53 -232 -53.5t-235 55.5l-119 -117zM369 637q0 -90 61.5 -154.5 t155.5 -64.5t155.5 64.5t61.5 154.5t-61.5 154.5t-155.5 64.5t-155.5 -64.5t-61.5 -154.5z" />
<glyph unicode="&#xa5;" horiz-adv-x="1300" d="M18 1341h369l258 -503l270 503h367l-348 -602h229v-184h-336l-22 -39v-92h358v-184h-358v-240h-316v240h-354v184h354v92l-22 39h-332v184h227z" />
<glyph unicode="&#xa6;" horiz-adv-x="573" d="M143 -240v693h287v-693h-287zM143 756v692h287v-692h-287z" />
<glyph unicode="&#xa7;" horiz-adv-x="1226" d="M117 602q0 127 94 240q-61 78 -61 180q0 168 125.5 269.5t337.5 101.5t368 -72v-295q-170 98 -336 98t-166 -100q0 -37 20.5 -54.5t36 -28.5t47 -28.5t59.5 -32t77 -39t90 -46.5q141 -74 209.5 -160t68.5 -225.5t-86 -241.5q63 -84 64 -184q0 -170 -132 -268.5 t-367.5 -98.5t-389.5 86v317q186 -135 397 -135q168 0 168 99q0 53 -61.5 93t-314.5 150q-248 111 -248 375zM419.5 586q0.5 -47 53.5 -90t155.5 -87t139.5 -65q16 33 16 63.5t-11 54t-26.5 41t-49 38t-60.5 32.5q-97 50 -195 99q-23 -39 -22.5 -86z" />
<glyph unicode="&#xa8;" horiz-adv-x="1024" d="M68 1453q0 71 48 119t120.5 48t121 -48t48.5 -119t-48.5 -119t-121 -48t-120.5 48t-48 119zM616 1453q0 71 48.5 119t121 48t121.5 -48t49 -119t-49 -119t-121.5 -48t-121 48t-48.5 119z" />
<glyph unicode="&#xa9;" horiz-adv-x="1558" d="M72 692q0 293 207.5 500t500.5 207t500 -208t207 -500t-207 -499.5t-500 -207.5t-500.5 207.5t-207.5 500.5zM270 688q0 -221 144.5 -364.5t364.5 -143.5t364.5 143.5t144.5 364.5t-144.5 365.5t-364.5 144.5t-364.5 -144.5t-144.5 -365.5zM454 691.5q1 152.5 98 248.5 t261 96q100 0 184 -45v-192q-72 45 -146.5 45t-119.5 -39t-47 -115q4 -72 46 -111.5t115 -39.5t152 49v-195q-80 -43 -209 -43t-232 94.5t-102 247z" />
<glyph unicode="&#xaa;" horiz-adv-x="819" d="M20 1059q0 119 92.5 190.5t274.5 71.5h113v57q0 111 -145.5 111t-268.5 -78v227q106 57 297.5 57.5t283 -79.5t91.5 -248v-565h-246v106q-53 -113 -221 -112q-127 0 -199 71.5t-72 190.5zM283 1063q0 -88 104 -88q51 0 82 33.5t31 89.5v65h-84q-63 0 -98 -27.5t-35 -72.5 z" />
<glyph unicode="&#xab;" horiz-adv-x="1212" d="M53 518l312 332h311l-299 -332l299 -332h-311zM504 518l311 332h311l-299 -332l299 -332h-311z" />
<glyph unicode="&#xac;" horiz-adv-x="1234" d="M92 616v238h1051v-575h-246v337h-805z" />
<glyph unicode="&#xad;" horiz-adv-x="731" d="M92 414v245h547v-245h-547z" />
<glyph unicode="&#xae;" horiz-adv-x="1007" d="M20 1128.5q0 210.5 136.5 346t346.5 135.5t347 -136.5t137 -345t-137 -344t-347 -135.5t-346.5 134.5t-136.5 345zM147 1128.5q0 -161.5 97.5 -260t260.5 -98.5t260 98.5t97 260t-97 262t-260 100.5t-260.5 -100.5t-97.5 -262zM356 901v485h144q186 0 186 -153 q0 -98 -78 -135l123 -197h-135l-102 176h-27v-176h-111zM467 1169h45q27 0 42 18.5t15 45.5q0 61 -65 61h-37v-125z" />
<glyph unicode="&#xaf;" horiz-adv-x="1024" d="M147 1333v203h730v-203h-730z" />
<glyph unicode="&#xb0;" horiz-adv-x="901" d="M61 1014q0 162 114 275.5t275.5 113.5t275.5 -113.5t114 -275.5t-114 -275.5t-275.5 -113.5t-275.5 113.5t-114 275.5zM270 1013.5q0 -73.5 53.5 -126.5t127 -53t127 53t53.5 126.5t-53.5 127t-127 53.5t-127 -53.5t-53.5 -127z" />
<glyph unicode="&#xb1;" horiz-adv-x="1206" d="M92 57v246h1022v-246h-1022zM92 668v245h373v285h274v-285h375v-245h-375v-287h-274v287h-373z" />
<glyph unicode="&#xb2;" horiz-adv-x="747" d="M72 803v158q147 106 247.5 220.5t100.5 204.5q0 104 -125 105q-96 0 -203 -76v215q106 68 243.5 68t224.5 -75t87 -206q0 -236 -303 -430h332v-184h-604z" />
<glyph unicode="&#xb3;" horiz-adv-x="722" d="M72 850v192q117 -61 231 -61q57 0 91 26.5t34 65.5q0 84 -174 84h-31v182h29q158 0 158 84t-105.5 84t-200.5 -71v206q96 55 230.5 55.5t218.5 -68t84 -179.5q0 -80 -44 -132t-122 -69q78 -8 129 -61t51 -154.5t-85 -170t-238.5 -68.5t-255.5 55z" />
<glyph unicode="&#xb4;" horiz-adv-x="1024" d="M274 1272l177 362h299l-228 -362h-248z" />
<glyph unicode="&#xb5;" horiz-adv-x="1198" d="M123 -369v1407h299v-626q0 -88 51 -135.5t135 -47.5t126 58.5t42 201.5v549h299v-1038h-299v123q-70 -131 -213 -131q-74 0 -141 28v-389h-299z" />
<glyph unicode="&#xb6;" horiz-adv-x="1212" d="M20 1016.5q0 152.5 112 258t343 105.5h189v-1683h-228v952q-199 0 -307.5 107.5t-108.5 260zM852 -303l2 1683h225v-1683h-227z" />
<glyph unicode="&#xb7;" horiz-adv-x="548" d="M92 516q0 76 53.5 129t129 53t129 -53t53.5 -129t-53.5 -129t-129 -53t-129 53t-53.5 129z" />
<glyph unicode="&#xb8;" horiz-adv-x="1024" d="M328 -362q74 0 113.5 34.5t39.5 94t-53 129.5h231q35 -56 35 -152q0 -129 -93 -211t-273 -82v187z" />
<glyph unicode="&#xb9;" horiz-adv-x="571" d="M20 1333v201l275 156h174v-887h-211v657z" />
<glyph unicode="&#xba;" horiz-adv-x="905" d="M20 1239q0 199 118 330t321 131t314.5 -127t111.5 -325.5t-114 -327.5t-319.5 -129t-318.5 124.5t-113 323.5zM285 1244q0 -114 43 -185.5t128 -71.5t125 69.5t40 182.5q0 262 -170 262q-84 0 -125 -71.5t-41 -185.5z" />
<glyph unicode="&#xbb;" horiz-adv-x="1210" d="M84 186l299 332l-299 332h311l312 -332l-312 -332h-311zM535 186l299 332l-299 332h311l311 -332l-311 -332h-311z" />
<glyph unicode="&#xbf;" horiz-adv-x="937" d="M133 23q0 92 37 166.5t92 117.5q115 86 205 86l6 168h272l7 -309q-315 0 -316 -193q0 -74 44 -117.5t130 -43.5q133 0 267 88v-281q-123 -57 -314.5 -57t-310.5 101t-119 274zM426 874.5q0 77.5 54.5 132t132 54.5t132 -54.5t54.5 -132t-54.5 -132t-132 -54.5t-132 54.5 t-54.5 132z" />
<glyph unicode="&#xc0;" horiz-adv-x="1413" d="M47 0l461 1380h397l461 -1380h-338l-84 283h-483l-84 -283h-330zM356 1839h299l176 -362h-247zM537 537h331q-137 469 -166 614q-11 -90 -165 -614z" />
<glyph unicode="&#xc1;" horiz-adv-x="1413" d="M47 0l461 1380h397l461 -1380h-338l-84 283h-483l-84 -283h-330zM537 537h331q-137 469 -166 614q-11 -90 -165 -614zM604 1477l176 362h299l-227 -362h-248z" />
<glyph unicode="&#xc2;" horiz-adv-x="1413" d="M47 0l461 1380h397l461 -1380h-338l-84 283h-483l-84 -283h-330zM262 1477l320 362h254l319 -362h-285l-161 196l-162 -196h-285zM537 537h331q-137 469 -166 614q-11 -90 -165 -614z" />
<glyph unicode="&#xc3;" horiz-adv-x="1413" d="M47 0l461 1380h397l461 -1380h-338l-84 283h-483l-84 -283h-330zM305 1632q33 70 97.5 119t139 49t157.5 -35.5t122 -35.5q100 0 144 88l151 -125q-88 -174 -278 -174q-68 0 -141.5 35.5t-114.5 35.5t-70 -17.5t-74 -70.5zM537 537h331q-137 469 -166 614 q-11 -90 -165 -614z" />
<glyph unicode="&#xc4;" horiz-adv-x="1413" d="M47 0l461 1380h397l461 -1380h-338l-84 283h-483l-84 -283h-330zM276 1658q0 71 48.5 119t121 48t120.5 -48t48 -119t-48 -119t-120.5 -48t-121 48t-48.5 119zM537 537h331q-137 469 -166 614q-11 -90 -165 -614zM825 1658q0 71 48.5 119t121 48t121.5 -48t49 -119 t-49 -119t-121.5 -48t-121 48t-48.5 119z" />
<glyph unicode="&#xc5;" horiz-adv-x="1413" d="M47 0l461 1380h397l461 -1380h-338l-84 283h-483l-84 -283h-330zM436 1732.5q0 114.5 82 196.5t196.5 82t196.5 -82t82 -196.5t-82 -196.5t-196.5 -82t-196.5 82t-82 196.5zM537 537h331q-137 469 -166 614q-11 -90 -165 -614zM606 1739q0 -47 31 -81t78 -34t77.5 34 t30.5 81t-30.5 80.5t-77.5 33.5t-78 -33.5t-31 -80.5z" />
<glyph unicode="&#xc6;" horiz-adv-x="1925" d="M16 0l666 1380h1112v-252h-532v-313h475v-250h-475v-313h540v-252h-846v283h-469l-141 -283h-330zM616 537h340v720q-70 -180 -340 -720z" />
<glyph unicode="&#xc7;" horiz-adv-x="1255" d="M82 688q0 313 197.5 512t515.5 199q233 0 358 -78v-303q-154 94 -331 94t-289.5 -115.5t-112.5 -308t112.5 -304.5t298 -112t322.5 99v-310q-125 -78 -360 -77q-303 0 -507 195.5t-204 508.5zM551 -362q74 0 114 34.5t40 94t-54 129.5h232q35 -56 35 -152 q0 -129 -93.5 -211t-273.5 -82v187z" />
<glyph unicode="&#xc8;" horiz-adv-x="1114" d="M133 0v1380h850v-252h-532v-313h475v-250h-475v-313h540v-252h-858zM233 1839h299l177 -362h-248z" />
<glyph unicode="&#xc9;" horiz-adv-x="1114" d="M133 0v1380h850v-252h-532v-313h475v-250h-475v-313h540v-252h-858zM455 1477l176 362h299l-228 -362h-247z" />
<glyph unicode="&#xca;" horiz-adv-x="1114" d="M111 1477l319 362h254l320 -362h-285l-162 196l-162 -196h-284zM133 0v1380h850v-252h-532v-313h475v-250h-475v-313h540v-252h-858z" />
<glyph unicode="&#xcb;" horiz-adv-x="1114" d="M113 1655.5q0 70.5 48 119t120.5 48.5t121 -48.5t48.5 -119t-48.5 -118.5t-121 -48t-120.5 48t-48 118.5zM133 0v1380h850v-252h-532v-313h475v-250h-475v-313h540v-252h-858zM662 1655.5q0 70.5 48 119t120.5 48.5t121.5 -48.5t49 -119t-49 -118.5t-121.5 -48t-120.5 48 t-48 118.5z" />
<glyph unicode="&#xcc;" horiz-adv-x="622" d="M-49 1839h299l176 -362h-248zM154 0v1380h315v-1380h-315z" />
<glyph unicode="&#xcd;" horiz-adv-x="622" d="M154 0v1380h315v-1380h-315zM193 1477l176 362h299l-228 -362h-247z" />
<glyph unicode="&#xce;" horiz-adv-x="622" d="M-131 1477l319 362h254l320 -362h-285l-162 196l-161 -196h-285zM154 0v1380h315v-1380h-315z" />
<glyph unicode="&#xcf;" horiz-adv-x="622" d="M-121 1658q0 71 48 119t121 48t121 -48t48 -119t-48 -119t-121 -48t-121 48t-48 119zM154 0v1380h315v-1380h-315zM428 1658q0 71 48 119t121 48t122 -48t49 -119t-49 -119t-122 -48t-121 48t-48 119z" />
<glyph unicode="&#xd0;" horiz-adv-x="1533" d="M133 551v254h135v575h475q311 0 510 -191.5t199 -475.5q0 -332 -195.5 -522.5t-517.5 -190.5h-471v551h-135zM592 258h143q190 0 294 119t104 319.5t-104.5 312t-295.5 111.5h-141v-315h282v-254h-282v-293z" />
<glyph unicode="&#xd1;" horiz-adv-x="1427" d="M133 0v1380h346l322 -571q139 -248 198 -420q-20 152 -20 420v571h315v-1380h-346l-330 571q-129 219 -184 377l-16 51q31 -184 31 -428v-571h-316zM319 1632q33 70 97.5 119t139.5 49t158 -35.5t122 -35.5q98 0 143 88l151 -125q-85 -174 -278 -174q-68 0 -141.5 35.5 t-114.5 35.5t-69.5 -17.5t-73.5 -70.5z" />
<glyph unicode="&#xd2;" horiz-adv-x="1507" d="M82 693.5q0 318.5 183.5 514t489.5 195.5t488 -194.5t182 -513t-183 -514t-489.5 -195.5t-488.5 194.5t-182 513zM420 694.5q0 -194.5 90 -308.5t243.5 -114t243.5 114t90 308.5t-90 308t-243.5 113.5t-243.5 -113.5t-90 -308zM422 1839h299l176 -362h-248z" />
<glyph unicode="&#xd3;" horiz-adv-x="1507" d="M82 693.5q0 318.5 183.5 514t489.5 195.5t488 -194.5t182 -513t-183 -514t-489.5 -195.5t-488.5 194.5t-182 513zM420 694.5q0 -194.5 90 -308.5t243.5 -114t243.5 114t90 308.5t-90 308t-243.5 113.5t-243.5 -113.5t-90 -308zM637 1477l176 362h299l-227 -362h-248z" />
<glyph unicode="&#xd4;" horiz-adv-x="1507" d="M82 693.5q0 318.5 183.5 514t489.5 195.5t488 -194.5t182 -513t-183 -514t-489.5 -195.5t-488.5 194.5t-182 513zM315 1477l320 362h254l319 -362h-284l-162 196l-162 -196h-285zM420 694.5q0 -194.5 90 -308.5t243.5 -114t243.5 114t90 308.5t-90 308t-243.5 113.5 t-243.5 -113.5t-90 -308z" />
<glyph unicode="&#xd5;" horiz-adv-x="1507" d="M82 693.5q0 318.5 183.5 514t489.5 195.5t488 -194.5t182 -513t-183 -514t-489.5 -195.5t-488.5 194.5t-182 513zM348 1630q33 70 97.5 119t139 49t157.5 -36t122 -36q98 0 144 89l151 -125q-85 -174 -278 -174q-68 0 -141.5 35.5t-114.5 35.5t-70 -17.5t-74 -70.5z M420 694.5q0 -194.5 90 -308.5t243.5 -114t243.5 114t90 308.5t-90 308t-243.5 113.5t-243.5 -113.5t-90 -308z" />
<glyph unicode="&#xd6;" horiz-adv-x="1507" d="M82 693.5q0 318.5 183.5 514t489.5 195.5t488 -194.5t182 -513t-183 -514t-489.5 -195.5t-488.5 194.5t-182 513zM328 1658q0 71 48 119t120.5 48t121 -48t48.5 -119t-48.5 -119t-121 -48t-120.5 48t-48 119zM420 694.5q0 -194.5 90 -308.5t243.5 -114t243.5 114 t90 308.5t-90 308t-243.5 113.5t-243.5 -113.5t-90 -308zM877 1658q0 71 48 119t120.5 48t122 -48t49.5 -119t-49.5 -119t-122 -48t-120.5 48t-48 119z" />
<glyph unicode="&#xd7;" horiz-adv-x="1085" d="M86 961l188 188l265 -262l260 260l194 -193l-262 -262l266 -264l-188 -188l-266 264l-260 -260l-195 192l262 262z" />
<glyph unicode="&#xd8;" horiz-adv-x="1462" d="M78 702.5q0 309.5 183 505t489 195.5q182 0 325 -72l51 70h297l-161 -219q160 -188 159.5 -496.5t-183.5 -504t-488 -195.5q-176 0 -320 69l-51 -69h-299l160 217q-162 190 -162 499.5zM401 694q0 -131 37 -223l465 629q-71 33 -153 33q-160 0 -254.5 -119t-94.5 -320z M602 287q66 -31 148 -31q160 0 254 119t94 319q0 125 -35 217z" />
<glyph unicode="&#xd9;" horiz-adv-x="1368" d="M123 520v860h315v-858q0 -256 246 -256t246 266v848h315v-845q0 -270 -151.5 -412.5t-407.5 -142.5t-409.5 141t-153.5 399zM348 1839h299l176 -362h-248z" />
<glyph unicode="&#xda;" horiz-adv-x="1368" d="M123 520v860h315v-858q0 -256 246 -256t246 266v848h315v-845q0 -270 -151.5 -412.5t-407.5 -142.5t-409.5 141t-153.5 399zM588 1477l176 362h299l-227 -362h-248z" />
<glyph unicode="&#xdb;" horiz-adv-x="1368" d="M123 520v860h315v-858q0 -256 246 -256t246 266v848h315v-845q0 -270 -151.5 -412.5t-407.5 -142.5t-409.5 141t-153.5 399zM233 1477l320 362h254l319 -362h-284l-162 196l-162 -196h-285z" />
<glyph unicode="&#xdc;" horiz-adv-x="1368" d="M123 520v860h315v-858q0 -256 246 -256t246 266v848h315v-845q0 -270 -151.5 -412.5t-407.5 -142.5t-409.5 141t-153.5 399zM250 1655.5q0 70.5 48 119t121 48.5t121 -48.5t48 -119t-48 -118.5t-121 -48t-121 48t-48 118.5zM799 1655.5q0 70.5 48 119t120.5 48.5 t122 -48.5t49.5 -119t-49.5 -118.5t-122 -48t-120.5 48t-48 118.5z" />
<glyph unicode="&#xdd;" horiz-adv-x="1316" d="M27 1380h368q207 -496 258 -643q20 92 181 443l90 200h366l-477 -872v-508h-315v506zM563 1477l176 362h299l-227 -362h-248z" />
<glyph unicode="&#xde;" horiz-adv-x="1153" d="M133 0v1380h316v-225h159q231 0 372.5 -128t141.5 -341t-148.5 -337t-365.5 -124h-159v-225h-316zM449 475h135q109 0 164 59.5t55 150.5t-51.5 154.5t-167.5 63.5h-135v-428z" />
<glyph unicode="&#xdf;" horiz-adv-x="1224" d="M123 0v944q0 223 118.5 346t328.5 123t334 -103.5t124 -246.5q0 -117 -86 -242q-27 -41 -27 -67.5t42 -61.5t92.5 -71.5t92.5 -115.5t42 -179q0 -156 -101.5 -250t-268.5 -94t-241 49v252q105 -68 207 -68q55 0 90 28.5t35 73.5t-30.5 82t-73.5 68t-88 63 q-104 78 -105 189q0 78 58.5 173t58.5 144q0 117 -127 117q-184 0 -184 -190v-963h-291z" />
<glyph unicode="&#xe0;" horiz-adv-x="1056" d="M72 305q0 139 109.5 222t324.5 83h131v72q0 131 -171 131t-314 -94v268q123 70 349 70t334.5 -95.5t108.5 -295.5v-666h-293v127q-66 -133 -258 -133q-152 0 -236.5 86t-84.5 225zM193 1497h299l176 -362h-248zM383 309q0 -104 121 -104q63 0 98 39t35 106v76h-96 q-76 0 -117 -33t-41 -84z" />
<glyph unicode="&#xe1;" horiz-adv-x="1056" d="M72 305q0 139 109.5 222t324.5 83h131v72q0 131 -171 131t-314 -94v268q123 70 349 70t334.5 -95.5t108.5 -295.5v-666h-293v127q-66 -133 -258 -133q-152 0 -236.5 86t-84.5 225zM383 309q0 -104 121 -104q63 0 98 39t35 106v76h-96q-76 0 -117 -33t-41 -84zM397 1135 l176 362h299l-227 -362h-248z" />
<glyph unicode="&#xe2;" horiz-adv-x="1056" d="M72 305q0 139 109.5 222t324.5 83h131v72q0 131 -171 131t-314 -94v268q123 70 349 70t334.5 -95.5t108.5 -295.5v-666h-293v127q-66 -133 -258 -133q-152 0 -236.5 86t-84.5 225zM78 1135l319 362h254l320 -362h-285l-162 196l-162 -196h-284zM383 309q0 -104 121 -104 q63 0 98 39t35 106v76h-96q-76 0 -117 -33t-41 -84z" />
<glyph unicode="&#xe3;" horiz-adv-x="1056" d="M72 305q0 139 109.5 222t324.5 83h131v72q0 131 -171 131t-314 -94v268q123 70 349 70t334.5 -95.5t108.5 -295.5v-666h-293v127q-66 -133 -258 -133q-152 0 -236.5 86t-84.5 225zM119 1290q33 70 97.5 119t139 49t157.5 -36t122 -36q98 0 143 89l152 -125 q-86 -174 -279 -174q-68 0 -141.5 35.5t-114.5 35.5t-69.5 -17.5t-73.5 -70.5zM383 309q0 -104 121 -104q63 0 98 39t35 106v76h-96q-76 0 -117 -33t-41 -84z" />
<glyph unicode="&#xe4;" horiz-adv-x="1056" d="M72 305q0 139 109.5 222t324.5 83h131v72q0 131 -171 131t-314 -94v268q123 70 349 70t334.5 -95.5t108.5 -295.5v-666h-293v127q-66 -133 -258 -133q-152 0 -236.5 86t-84.5 225zM98 1315.5q0 70.5 48.5 119t121 48.5t120.5 -48.5t48 -119t-48 -118.5t-120.5 -48 t-121 48t-48.5 118.5zM383 309q0 -104 121 -104q63 0 98 39t35 106v76h-96q-76 0 -117 -33t-41 -84zM647 1315.5q0 70.5 48 119t121 48.5t122 -48.5t49 -119t-49 -118.5t-122 -48t-121 48t-48 118.5z" />
<glyph unicode="&#xe5;" horiz-adv-x="1056" d="M72 305q0 139 109.5 222t324.5 83h131v72q0 131 -171 131t-314 -94v268q123 70 349 70t334.5 -95.5t108.5 -295.5v-666h-293v127q-66 -133 -258 -133q-152 0 -236.5 86t-84.5 225zM254 1390.5q0 114.5 82 196.5t196.5 82t196.5 -82t82 -196.5t-82 -196.5t-196.5 -82 t-196.5 82t-82 196.5zM383 309q0 -104 121 -104q63 0 98 39t35 106v76h-96q-76 0 -117 -33t-41 -84zM424 1397q0 -47 30.5 -81t78 -34t78 34t30.5 81t-30.5 80.5t-78 33.5t-78 -33.5t-30.5 -80.5z" />
<glyph unicode="&#xe6;" horiz-adv-x="1654" d="M82 300q0 144 109.5 227t324.5 83h131v72q0 131 -171 131t-314 -94v268q123 70 334 70q111 0 191.5 -41t113.5 -111q47 68 133 106t188 38q209 0 330 -122t121 -364q0 -47 -17 -162h-612q33 -86 109 -133t182 -47q158 0 274 88v-250q-109 -70 -311 -69q-117 0 -227.5 47 t-167.5 143q-33 -78 -121 -133t-249 -55t-256 82t-95 226zM393 309q0 -104 121 -104q63 0 98 38.5t35 106.5v76h-96q-76 0 -117 -33t-41 -84zM934 614h360v23q-14 184 -159 184q-70 0 -126.5 -53t-74.5 -154z" />
<glyph unicode="&#xe7;" horiz-adv-x="960" d="M72 516q4 233 151.5 386t403.5 153q158 0 272 -60v-256q-109 68 -238 68t-206.5 -75t-79.5 -216q8 -137 81.5 -213t198.5 -76t244 72v-250q-121 -66 -291 -65q-233 0 -384.5 148.5t-151.5 383.5zM389 -362q74 0 114 34.5t40 94t-54 129.5h232q35 -56 35 -152 q0 -129 -93.5 -211t-273.5 -82v187z" />
<glyph unicode="&#xe8;" horiz-adv-x="1091" d="M72 527.5q0 240.5 138 381t344 140.5t326.5 -122t120.5 -364q0 -47 -16 -162h-610q31 -86 106.5 -133t182.5 -47q158 0 274 88v-250q-106 -70 -344 -69.5t-380 149t-142 389zM213 1497h299l176 -362h-248zM362 614h361v25q-14 182 -160 182q-72 0 -127 -52t-74 -155z" />
<glyph unicode="&#xe9;" horiz-adv-x="1091" d="M72 527.5q0 240.5 138 381t344 140.5t326.5 -122t120.5 -364q0 -47 -16 -162h-610q31 -86 106.5 -133t182.5 -47q158 0 274 88v-250q-106 -70 -344 -69.5t-380 149t-142 389zM362 614h361v25q-14 182 -160 182q-72 0 -127 -52t-74 -155zM461 1133l176 362h299l-227 -362 h-248z" />
<glyph unicode="&#xea;" horiz-adv-x="1091" d="M72 527.5q0 240.5 138 381t344 140.5t326.5 -122t120.5 -364q0 -47 -16 -162h-610q31 -86 106.5 -133t182.5 -47q158 0 274 88v-250q-106 -70 -344 -69.5t-380 149t-142 389zM104 1135l320 362h254l319 -362h-284l-162 196l-162 -196h-285zM362 614h361v25 q-14 182 -160 182q-72 0 -127 -52t-74 -155z" />
<glyph unicode="&#xeb;" horiz-adv-x="1091" d="M72 527.5q0 240.5 138 381t344 140.5t326.5 -122t120.5 -364q0 -47 -16 -162h-610q31 -86 106.5 -133t182.5 -47q158 0 274 88v-250q-106 -70 -344 -69.5t-380 149t-142 389zM137 1315.5q0 70.5 48 119t121 48.5t121 -48.5t48 -119t-48 -118.5t-121 -48t-121 48 t-48 118.5zM362 614h361v25q-14 182 -160 182q-72 0 -127 -52t-74 -155zM686 1315.5q0 70.5 48 119t121 48.5t122 -48.5t49 -119t-49 -118.5t-122 -48t-121 48t-48 118.5z" />
<glyph unicode="&#xec;" horiz-adv-x="565" d="M-88 1497h299l176 -362h-248zM133 0v1038h299v-1038h-299z" />
<glyph unicode="&#xed;" horiz-adv-x="565" d="M133 0v1038h299v-1038h-299zM174 1135l176 362h299l-227 -362h-248z" />
<glyph unicode="&#xee;" horiz-adv-x="565" d="M-162 1135l320 362h254l319 -362h-285l-161 196l-162 -196h-285zM133 0v1038h299v-1038h-299z" />
<glyph unicode="&#xef;" horiz-adv-x="565" d="M-160 1315.5q0 70.5 48.5 119t121 48.5t120.5 -48.5t48 -119t-48 -118.5t-120.5 -48t-121 48t-48.5 118.5zM133 0v1038h299v-1038h-299zM389 1315.5q0 70.5 48 119t121 48.5t122 -48.5t49 -119t-49 -118.5t-122 -48t-121 48t-48 118.5z" />
<glyph unicode="&#xf0;" horiz-adv-x="1140" d="M72 416.5q0 183.5 109.5 295t279.5 111.5t280 -104q-27 176 -127 330l-292 -144v166l198 96q-102 111 -258 213h377q57 -41 117 -96l231 113v-166l-133 -66q92 -129 141 -281.5t49 -291.5q0 -276 -126.5 -444t-359 -168t-359.5 126.5t-127 310zM377 404.5 q0 -74.5 46 -116.5t124 -42t129 51t67 184q-86 90 -198 90q-80 0 -124 -46t-44 -120.5z" />
<glyph unicode="&#xf1;" d="M123 0v1038h299v-176q39 86 120 136.5t193 50.5q160 0 250 -95.5t90 -279.5v-674h-299v618q0 92 -43 140.5t-123 48.5t-134 -64.5t-54 -193.5v-549h-299zM193 1290q33 70 97 119t139 49t158 -36t122 -36q98 0 143 89l152 -125q-86 -174 -279 -174q-68 0 -141.5 35.5 t-114.5 35.5t-69.5 -17.5t-73.5 -70.5z" />
<glyph unicode="&#xf2;" horiz-adv-x="1161" d="M72 510.5q0 234.5 139 389.5t375.5 155t370 -149.5t133.5 -383t-134.5 -386t-376 -152.5t-374.5 146t-133 380.5zM250 1495h299l176 -362h-248zM383 518q0 -133 50 -218t149.5 -85t147.5 83t48 216q1 305 -198 305q-98 0 -147.5 -84t-49.5 -217z" />
<glyph unicode="&#xf3;" horiz-adv-x="1161" d="M72 510.5q0 234.5 139 389.5t375.5 155t370 -149.5t133.5 -383t-134.5 -386t-376 -152.5t-374.5 146t-133 380.5zM383 518q0 -133 50 -218t149.5 -85t147.5 83t48 216q1 305 -198 305q-98 0 -147.5 -84t-49.5 -217zM481 1133l176 362h299l-227 -362h-248z" />
<glyph unicode="&#xf4;" horiz-adv-x="1161" d="M72 510.5q0 234.5 139 389.5t375.5 155t370 -149.5t133.5 -383t-134.5 -386t-376 -152.5t-374.5 146t-133 380.5zM141 1133l320 362h254l319 -362h-284l-162 196l-162 -196h-285zM383 518q0 -133 50 -218t149.5 -85t147.5 83t48 216q1 305 -198 305q-98 0 -147.5 -84 t-49.5 -217z" />
<glyph unicode="&#xf5;" horiz-adv-x="1161" d="M72 510.5q0 234.5 139 389.5t375.5 155t370 -149.5t133.5 -383t-134.5 -386t-376 -152.5t-374.5 146t-133 380.5zM182 1290q33 70 97.5 119t139.5 49t157.5 -36t121.5 -36q100 0 144 89l151 -125q-88 -174 -278 -174q-68 0 -141.5 35.5t-114.5 35.5t-70 -17.5t-74 -70.5z M383 518q0 -133 50 -218t149.5 -85t147.5 83t48 216q1 305 -198 305q-98 0 -147.5 -84t-49.5 -217z" />
<glyph unicode="&#xf6;" horiz-adv-x="1161" d="M72 510.5q0 234.5 139 389.5t375.5 155t370 -149.5t133.5 -383t-134.5 -386t-376 -152.5t-374.5 146t-133 380.5zM160 1318q0 71 48 119t120.5 48t121 -48t48.5 -119t-48.5 -119t-121 -48t-120.5 48t-48 119zM383 518q0 -133 50 -218t149.5 -85t147.5 83t48 216 q1 305 -198 305q-98 0 -147.5 -84t-49.5 -217zM709 1318q0 71 48 119t120.5 48t122 -48t49.5 -119t-49.5 -119t-122 -48t-120.5 48t-48 119z" />
<glyph unicode="&#xf7;" horiz-adv-x="1206" d="M92 563v266h1022v-266h-1022zM438 335.5q0 63.5 46 110t109.5 46.5t110 -46.5t46.5 -110t-46.5 -109.5t-110 -46t-109.5 46t-46 109.5zM438 1056.5q0 63.5 46 109.5t109.5 46t110 -46t46.5 -109.5t-46.5 -109.5t-110 -46t-109.5 46t-46 109.5z" />
<glyph unicode="&#xf8;" horiz-adv-x="1150" d="M71.5 516.5q0.5 228.5 139.5 383.5t371 155q121 0 227 -43l31 43h250l-119 -166q119 -139 119 -369.5t-134.5 -383t-373.5 -152.5q-129 0 -230 45l-33 -45h-247l116 163q-117 141 -116.5 369.5zM346 518q0 -74 14 -131l320 444q-47 21 -100 21q-115 0 -174.5 -93 t-59.5 -241zM481 207q44 -25 103 -25q117 0 174 92.5t57 239.5q0 80 -14 139z" />
<glyph unicode="&#xf9;" d="M113 344v694h299v-626q0 -182 159 -183q195 0 195 260v549h299v-1038h-299v166q-82 -174 -315 -174q-160 0 -249 89t-89 263zM244 1495h299l176 -362h-248z" />
<glyph unicode="&#xfa;" d="M113 344v694h299v-626q0 -182 159 -183q195 0 195 260v549h299v-1038h-299v166q-82 -174 -315 -174q-160 0 -249 89t-89 263zM487 1133l177 362h299l-228 -362h-248z" />
<glyph unicode="&#xfb;" d="M113 344v694h299v-626q0 -182 159 -183q195 0 195 260v549h299v-1038h-299v166q-82 -174 -315 -174q-160 0 -249 89t-89 263zM143 1135l320 362h254l319 -362h-284l-162 196l-162 -196h-285z" />
<glyph unicode="&#xfc;" d="M113 344v694h299v-626q0 -182 159 -183q195 0 195 260v549h299v-1038h-299v166q-82 -174 -315 -174q-160 0 -249 89t-89 263zM143 1315.5q0 70.5 48.5 119t121 48.5t120.5 -48.5t48 -119t-48 -118.5t-120.5 -48t-121 48t-48.5 118.5zM692 1315.5q0 70.5 48 119t121 48.5 t122 -48.5t49 -119t-49 -118.5t-122 -48t-121 48t-48 118.5z" />
<glyph unicode="&#xfd;" horiz-adv-x="1089" d="M10 1038h326q199 -569 223 -686q27 100 213 686h307l-374 -1007q-162 -437 -494 -437q-63 0 -115 11v237q33 -8 70 -8q170 0 246 182zM459 1135l176 362h299l-227 -362h-248z" />
<glyph unicode="&#xfe;" horiz-adv-x="1251" d="M123 -383v1831h299v-569q109 172 311.5 172t324.5 -142.5t122 -380t-118 -389t-328 -151.5t-312 166v-537h-299zM422 528q0 -131 65.5 -210.5t166 -79.5t162 74.5t61.5 209.5t-62.5 208t-158 73t-165 -72t-69.5 -203z" />
<glyph unicode="&#xff;" horiz-adv-x="1089" d="M10 1038h326q199 -569 223 -686q27 100 213 686h307l-374 -1007q-162 -437 -494 -437q-63 0 -115 11v237q33 -8 70 -8q170 0 246 182zM121 1315.5q0 70.5 48 119t120.5 48.5t121 -48.5t48.5 -119t-48.5 -118.5t-121 -48t-120.5 48t-48 118.5zM670 1315.5q0 70.5 48 119 t120.5 48.5t122 -48.5t49.5 -119t-49.5 -118.5t-122 -48t-120.5 48t-48 118.5z" />
<glyph unicode="&#x152;" horiz-adv-x="2048" d="M82 693.5q0 320.5 178 515t483 194.5q180 0 324 -103v80h850v-252h-553v-313h496v-250h-496v-313h561v-252h-858v90q-143 -104 -324 -104q-305 0 -483 193.5t-178 514zM420 694.5q0 -194.5 86 -308.5t237.5 -114t237.5 114t86 308.5t-86 308t-237.5 113.5t-237.5 -113.5 t-86 -308z" />
<glyph unicode="&#x153;" horiz-adv-x="1800" d="M72 510.5q0 234.5 139 389.5t365.5 155t361.5 -148q141 141 342 141.5t321.5 -121.5t120.5 -364q0 -47 -16 -162h-610q31 -86 106.5 -133t181.5 -47q158 0 275 88v-250q-106 -70 -335.5 -69.5t-381.5 151.5q-137 -158 -370.5 -157.5t-366.5 146.5t-133 380.5zM383 518 q0 -133 50 -218t150.5 -85t155 84t54.5 216t-53.5 218t-156 86t-151.5 -84t-49 -217zM1083 614h361l-2 43q-18 164 -158 164q-72 0 -127 -52t-74 -155z" />
<glyph unicode="&#x178;" horiz-adv-x="1316" d="M27 1380h368q207 -496 258 -643q20 92 181 443l90 200h366l-477 -872v-508h-315v506zM229 1655.5q0 70.5 48.5 119t121 48.5t120.5 -48.5t48 -119t-48 -118.5t-120.5 -48t-121 48t-48.5 118.5zM778 1655.5q0 70.5 48 119t121 48.5t122 -48.5t49 -119t-49 -118.5t-122 -48 t-121 48t-48 118.5z" />
<glyph unicode="&#x2c6;" horiz-adv-x="1024" d="M66 1272l319 362h254l319 -362h-284l-162 196l-162 -196h-284z" />
<glyph unicode="&#x2dc;" horiz-adv-x="1024" d="M106 1386q33 70 97.5 119t139.5 49t158 -35.5t122 -35.5q98 0 143 88l152 -125q-86 -174 -279 -174q-68 0 -141.5 35.5t-114.5 35.5t-69.5 -17t-73.5 -71z" />
<glyph unicode="&#x2000;" horiz-adv-x="1005" />
<glyph unicode="&#x2001;" horiz-adv-x="2011" />
<glyph unicode="&#x2002;" horiz-adv-x="1005" />
<glyph unicode="&#x2003;" horiz-adv-x="2011" />
<glyph unicode="&#x2004;" horiz-adv-x="670" />
<glyph unicode="&#x2005;" horiz-adv-x="502" />
<glyph unicode="&#x2006;" horiz-adv-x="335" />
<glyph unicode="&#x2007;" horiz-adv-x="335" />
<glyph unicode="&#x2008;" horiz-adv-x="251" />
<glyph unicode="&#x2009;" horiz-adv-x="402" />
<glyph unicode="&#x200a;" horiz-adv-x="111" />
<glyph unicode="&#x2010;" horiz-adv-x="731" d="M92 414v245h547v-245h-547z" />
<glyph unicode="&#x2011;" horiz-adv-x="731" d="M92 414v245h547v-245h-547z" />
<glyph unicode="&#x2012;" horiz-adv-x="731" d="M92 414v245h547v-245h-547z" />
<glyph unicode="&#x2013;" horiz-adv-x="1136" d="M92 440v219h952v-219h-952z" />
<glyph unicode="&#x2014;" horiz-adv-x="1712" d="M92 446v220h1528v-220h-1528z" />
<glyph unicode="&#x2018;" horiz-adv-x="546" d="M55 887l279 534h258l-207 -534h-330z" />
<glyph unicode="&#x2019;" horiz-adv-x="546" d="M57 887l207 534h330l-279 -534h-258z" />
<glyph unicode="&#x201a;" horiz-adv-x="546" d="M-14 -260l207 534h329l-278 -534h-258z" />
<glyph unicode="&#x201c;" horiz-adv-x="925" d="M55 887l289 534h248l-213 -534h-324zM475 887l248 534h248l-197 -534h-299z" />
<glyph unicode="&#x201d;" horiz-adv-x="925" d="M57 887l197 534h299l-248 -534h-248zM436 887l213 534h324l-289 -534h-248z" />
<glyph unicode="&#x201e;" horiz-adv-x="925" d="M-4 -260l197 534h299l-248 -534h-248zM375 -260l213 534h323l-288 -534h-248z" />
<glyph unicode="&#x2022;" horiz-adv-x="870" d="M164 729q0 117 76.5 194.5t192.5 77.5t195 -78.5t79 -193.5t-78 -193.5t-194 -78.5t-193.5 77.5t-77.5 194.5z" />
<glyph unicode="&#x2026;" horiz-adv-x="1921" d="M123 166q0 76 53 129t129 53t129 -53t53 -129t-53 -129t-129 -53t-129 53t-53 129zM778 166q0 76 53.5 129t129 53t129 -53t53.5 -129t-53.5 -129t-129 -53t-129 53t-53.5 129zM1434 166q0 76 53 129t129 53t129 -53t53 -129t-53 -129t-129 -53t-129 53t-53 129z" />
<glyph unicode="&#x202f;" horiz-adv-x="402" />
<glyph unicode="&#x2039;" horiz-adv-x="759" d="M53 518l312 332h311l-299 -332l299 -332h-311z" />
<glyph unicode="&#x203a;" horiz-adv-x="759" d="M84 186l299 332l-299 332h311l312 -332l-312 -332h-311z" />
<glyph unicode="&#x205f;" horiz-adv-x="502" />
<glyph unicode="&#x20ac;" horiz-adv-x="1273" d="M82 412v184h156q-2 20 -2 64.5t2 66.5h-156v184h188q63 213 225 330t365 117t332 -78v-301q-121 98 -281 98q-201 0 -299 -166h365v-184h-422q-4 -49 -4 -81t2 -50h424v-184h-367q92 -154 291 -154q168 0 291 100v-303q-131 -72 -335 -71.5t-362.5 116t-222.5 312.5h-190 z" />
<glyph unicode="&#x2122;" horiz-adv-x="1542" d="M20 1212v168h535v-168h-170v-534h-192v534h-173zM625 678l59 702h203q147 -381 168 -475q23 86 174 475h203l71 -702h-186q-27 299 -27 361t6 128q-20 -115 -77 -262l-82 -219h-160q-127 348 -154 481q4 -33 9.5 -118.5t-3.5 -143.5l-18 -227h-186z" />
<glyph unicode="&#x25fc;" horiz-adv-x="1034" d="M0 0v1034h1034v-1034h-1034z" />
<glyph unicode="&#xfb01;" horiz-adv-x="1177" d="M61 819v219h136v39q0 188 105.5 293t299 105t379.5 -86v-242q-195 88 -338 88q-76 0 -112.5 -35t-36.5 -123v-39h596v-1038h-299v819h-297v-819h-297v819h-136z" />
<glyph unicode="&#xfb02;" horiz-adv-x="1214" d="M61 819v219h136v39q0 188 105.5 293t311 105t478.5 -129v-1346h-299v1214q-82 20 -152 20.5t-108.5 -32.5t-38.5 -125v-39h194v-219h-194v-819h-297v819h-136z" />
<glyph unicode="&#xfb03;" horiz-adv-x="1986" d="M61 819v219h136v39q0 188 105.5 293t287.5 105t344 -72q100 72 277.5 72t363.5 -86v-242q-195 88 -338 88q-76 0 -113 -35t-37 -123v-39h596v-1038h-299v819h-297v-819h-296v819h-297v-819h-297v819h-136zM494 1038h297v39q0 72 14 127q-104 31 -171 31t-103.5 -35 t-36.5 -123v-39z" />
<glyph unicode="&#xfb04;" horiz-adv-x="1808" d="M61 819v219h136v39q0 188 105.5 293t287.5 105t344 -72q100 72 254 72q225 0 498 -129v-1346h-300v1214q-82 20 -151.5 20.5t-108.5 -32.5t-39 -125v-39h195v-219h-195v-819h-296v819h-297v-819h-297v819h-136zM494 1038h297v39q0 72 14 127q-104 31 -171 31t-103.5 -35 t-36.5 -123v-39z" />
</font>
</defs>
</svg>
